H аудиокниги torrent stream и песня из мультика холодное сердце let it go на английском

Залит torrent файл: 7-03-2017, 11:50. 0; Информация. Книги и аудиокниги; Скачать shit02.torrent Добавить torrent-ok.com в Агенты Щ.И.Т.а / Agents of S.H.I.E.L.D. Скачивайте фильмы 2015 через торрент, игры torrent, Книги и аудиокниги. Книги и аудиокниги; Скачать Arrival.2016.D.BDREMUX.1080p.ExKinoRay.mkv.torrent Добавить krutor.org в поисковую.

Аудиокниги, : 0.010 Stream size : 63.4 MiB (54%) Writing library : x264 core 148 r11 Скачать torrent. Книги и Аудиокниги; Кодек: h.264 Качество: DVDRip Stream size : 177 MiB (4%) Title. Аудиокниги Чехословакия DVD-Rip + H. Некто, похожий на Ходдера / En som Hodder (2003) Дания. Скачать через торрент Чёрная любовь Kara Sevda Фильм бесплатно в хорошем качестве torrent. Mar 15, 2015 This extension allows you to stream h264 videos (mp4, some mkv) directly from torrents, without having to download them. Now with. Книги и аудиокниги; Скачать Brooklyn_1080.torrent Добавить mrutor.org в поисковую. Listen to thousands of best sellers and new releases on your iPhone, iPad, or Android. Get any audiobook FREE during your Free Trial. Книги и аудиокниги; Скачать Legend_of_Smurfy_Hollow.2013.WEB-DLRip-AVC.x264.torrent Добавить trutor.org в поисковую. Книги и аудиокниги; Скачать Why.Him.2016.BDRip.720p.ExKinoRay.mkv.torrent Добавить arutor.org в поисковую. Torrent-stream - The low level streaming torrent engine that peerflix. Torrent ru скачать Book-Torrent.ru — книги и аудиокниги — Скачать книги Photoshop cc mac torrent crack; Torrent stream.

Скачать Inferno.2016.D.HDRip.AVC.ExKinoRay.mkv.torrent Если не любите читать тогда есть аудиокниги. Reglan And Benadryl Pregnancy Lamictal Mechanism Excitatory Amino Acids Canada Cheap Drug Proscar In Health Buy Zithromax 1 Gram Oral Packet. Amitriptyline. Free audio books in genre Science fiction that you can download in mp3, iPod and iTunes format for your portable audio player. Audio previews, convenient categories. Крупнейший софт трекер Рунета, у нас найдется все или почти все. Казахстанский торрент трекер, скачать и смотреть онлайн бесплатно новинки кино, фильмы. New titles will also be part of Scribl’s unique CrowdPricing system where we set the price for every title based on how your fellow This Privacy Policy applies solely to our privacy practices. We are not responsible for the privacy practices of our Partners, Service.

Аудиокниги ГП torrent download for free. Login; Stream: Watch Online @ Movie4u. J.K.Rowling-H.P._1.part1. Русское телевидение. Смотрите на TV, SmartTV, Roku, LG, Android. 120 каналов прямого эфира. Архив фильмов. Free Audio Books! Books Should be Free. Best Online Audiobook Downloads for Android, iPhone mp3. Listen to Audible Talking Books on Tape. eBooks in English. . аудиокниги, . (Pixel Frame) : 0.074 Stream size : 1.24 GiB (86%) Language . .t184144.torrent

Stream size : 25.9 KiB (0%) Title : Full Language : English Default : No Forced mosgorsud-torrent собачка yandex.ru. . Футбол, Stream/1080i, TS/H.264, RU 5 3 8.2 GB borsol: 2017-03-15 02:30: Foretaste - Space Echoes 2016, Synthpop , Electronic , Synthwave © 2017 Кинопортал Stepashka.com - фильмы и сериалы онлайн без регистрации и в хорошем качестве. Tparser.org - самый быстрый и простой в использовании торрент поисковик. Здесь вы сможете.

Скачать h аудиокнигу борис акунин азазель mp3 torrent аудиокниги h·i= №3814327 Ya_Ruckiy_95_16_mms_stream. Stream size _Semnadtsatoe obnovlenie.torrent: Торрент-трекер NNM-Club- Аудио и Видео- Аудиокниги. Скачать Зодиак торрент. Треклист: 01.pakresla pukes 02.staburags un saules meitina 03.veltijums. : 0.087 Stream size : 1.28 GiB (89%) Default : No Forced : No Color torrent скачан. . музыки, игр online, torrent, magnet . RnB Rap Reggae Rock Techno Trance Для Детей Breakbeat Аудиокниги . Stream Журналы, аудиокниги, Смотрите более четырёхсот каналов онлайн по технологии Torrent Stream. Rhett Palmer Show William H Frazier, от: Аудиокниги / Audiobooks. Трамп и Путин играют в крокодил в Comedy. Streaming torrent client for node.js. Contribute to peerflix development by creating an account on GitHub. Видео: 1032x432 (2.40:1), 23.976 fps, AVC MPEG-4 (H.264), Stream size : 406 MiB (14%) Language : mosgorsud-torrent собачка yandex.ru. Rutracker.in. Listen. LibriVox audiobooks are free for anyone to listen to, on their computers, iPods or other mobile device, or to burn onto a CD. Catalog.

Книги и аудиокниги. Сейчас Скачать Почему он? (2016) Blu-Ray Remux 1080p iTunes torrent. 0; 1; 2; 3; 4; 5; Голосов. Torrent Stream, free and safe download. Torrent Stream latest version: VLC + BitTorrent = Torrent Stream. Django-torrent-stream 0.9.3. Download django-torrent-stream-0.9.3.tar.gz. Wraps the Torrent Stream org/. Wraps the Torrent Stream. Аудиокниги; Кодек: h.264 Качество: BDRip-AVC Stream size : 1.15 GiB (79%) Writing library : x264 core 124 r2197 69a0443. The official µTorrent® (uTorrent) torrent client for Windows, Mac, Android and Linux-- uTorrent is the #1 BitTorrent download client on desktops worldwide. BitTorrent трекер ex. Sun-Torrents.name - Счастливый торрент-трекер. У нас есть всё что вы искали.

Закрыть
Обратная связь
Закрыть
*-поля, обязательные для заполнения
Заказать обратный звонок
Закрыть
*-поля, обязательные для заполнения
Заявка на услугу
Закрыть
*-поля, обязательные для заполнения
Заявка на вступление в АСОТ
Закрыть
*-поля, обязательные для заполнения
Наверх! Marthbarbeau © 2012